Details for this torrent 


Any Bullet Will Do 2018 720p WEB-DL DD 2.0 x264 [MW]
Type:
Video > HD - Movies
Files:
1
Size:
1.03 GiB (1109077382 Bytes)
Info:
IMDB
Tag(s):
Western
Uploaded:
2018-09-14 22:30:04 GMT
By:
MFreaky
Seeders:
0
Leechers:
0
Comments
0  

Info Hash:
8E46DEBDC9DAE79F00520025DD2807068F73FF0B




(Problems with magnets links are fixed by upgrading your torrent client!)
 http://pichub.site/image/EOQgR 
http://pichub.site/image/EOeMB 
http://pichub.site/image/EOjtY 
http://pichub.site/image/EOqp6 
http://pichub.site/image/ER4et

IMDB 
http://www.imdb.com/title/tt4985906/


Video
Format                                   : AVC
Format/Info                              : Advanced Video Codec
Format profile                           : [email protected]
Format settings                          : CABAC / 4 Ref Frames
Format settings, CABAC                   : Yes
Format settings, RefFrames               : 4 frames
Codec ID                                 : V_MPEG4/ISO/AVC
Duration                                 : 1 h 46 min
Bit rate                                 : 1 200 kb/s
Width                                    : 1 280 pixels
Height                                   : 528 pixels
Display aspect ratio                     : 2.40:1
Frame rate mode                          : Constant
Frame rate                               : 23.976 (24000/1001) FPS
Color space                              : YUV
Chroma subsampling                       : 4:2:0
Bit depth                                : 8 bits
Scan type                                : Progressive
Bits/(Pixel*Frame)                       : 0.074
Stream size                              : 910 MiB (86%)
Writing library                          : x264 core 155 r2901 7d0ff22

Audio
Format                                   : AC-3
Format/Info                              : Audio Coding 3
Codec ID                                 : A_AC3
Duration                                 : 1 h 46 min
Bit rate mode                            : Constant
Bit rate                                 : 192 kb/s
Channel(s)                               : 2 channels
Channel positions                        : Front: L R
Sampling rate                            : 48.0 kHz
Frame rate                               : 31.250 FPS (1536 SPF)
Bit depth                                : 16 bits
Compression mode                         : Lossy
Stream size                              : 147 MiB (14%)
Language                                 : English